Arizona 2018 Movies 720p BluRay x264 AAC ESubs with Sample ☻rDX☻...

  • Category Movies
  • Type HD
  • Language English
  • Total size 784.5 MB
  • Uploaded By nehalpuja
  • Downloads 17
  • Last checked 1 hour ago
  • Date uploaded 1 day ago
  • Seeders 6
  • Leechers 2

Arizona

ComedyDrama

Set in the midst of the 2009 housing crisis, this darkly comedic story follows Cassie Fowler, a single mom and struggling realtor whose life goes off the rails when she witnesses a murder.

Infohash : 62CA0390E8543A0ABCA753F7A45CDBB92A7B3814

Arizona 2018 Movies 720p BluRay x264 AAC ESubs with Sample ☻rDX☻
===============================================================================================

SCREEN SHOTS:



or

http://iphonehosting.eu/2018/9/a/discount/1.html

File size                                : 776 MiB
Duration                                 : 1 h 23 min
Overall bit rate                         : 1 298 kb/s
Movie name                               : Arizona 2018 Movies 720p BluRay x264 AAC ESubs ☻rDX☻

Video
ID                                       : 1
Format                                   : AVC
Format/Info                              : Advanced Video Codec
Format profile                           : [email protected]
Format settings, CABAC                   : Yes
Format settings, ReFrames                : 2 frames
Format settings, GOP                     : M=1, N=12
Codec ID                                 : V_MPEG4/ISO/AVC
Duration                                 : 1 h 23 min
Bit rate mode                            : Constant
Bit rate                                 : 1 228 kb/s
Width                                    : 1 280 pixels
Height                                   : 538 pixels
Display aspect ratio                     : 2.40:1
Frame rate mode                          : Constant
Frame rate                               : 23.976 (24000/1001) FPS
Color space                              : YUV
Chroma subsampling                       : 4:2:0
Bit depth                                : 8 bits
Scan type                                : Progressive
Bits/(Pixel*Frame)                       : 0.074
Stream size                              : 723 MiB (93%)
Title                                    : ☻rDX☻
Default                                  : Yes
Forced                                   : No

Audio
ID                                       : 2
Format                                   : MPEG Audio
Format version                           : Version 1
Format profile                           : Layer 3
Mode                                     : Joint stereo
Mode extension                           : MS Stereo
Codec ID                                 : A_MPEG/L3
Codec ID/Hint                            : MP3
Duration                                 : 1 h 23 min
Bit rate mode                            : Constant
Bit rate                                 : 64.0 kb/s
Channel(s)                               : 2 channels
Sampling rate                            : 44.1 kHz
Compression mode                         : Lossy
Stream size                              : 38.3 MiB (5%)
Title                                    : ☻rDX☻
Writing library                          : LAME3.99.5
Default                                  : Yes
Forced                                   : No

Text
ID                                       : 3
Format                                   : VobSub
Title                                    : ☻rDX☻
Language                                 : English
Default                                  : Yes
Forced                                   : No

http://www.imdb.com/title/tt2140629/

Files:

Arizona 2018 Movies 720p BluRay x264 AAC ESubs with Sample ☻rDX☻
  • Sample ~ Arizona 2018 Movies 720p BluRay x264 AAC ESubs ☻rDX☻.mkv (8.0 MB)
  • Arizona 2018 Movies 720p BluRay x264 AAC ESubs ☻rDX☻.mkv (776.5 MB)

There are currently no comments. Feel free to leave one :)

Code:

  • udp://tracker.coppersurfer.tk:6969/announce
  • udp://tracker.leechers-paradise.org:6969/announce
  • udp://tracker.pirateparty.gr:6969/announce
  • udp://eddie4.nl:6969/announce
  • udp://tracker.zer0day.to:1337/announce
  • udp://9.rarbg.me:2710/announce
  • udp://9.rarbg.to:2710/announce
  • udp://public.popcorn-tracker.org:6969/announce
  • udp://p4p.arenabg.ch:1337/announce
  • udp://tracker.vanitycore.co:6969/announce
  • udp://ipv4.tracker.harry.lu:80/announce
  • udp://tracker.opentrackr.org:1337/announce
  • udp://p4p.arenabg.com:1337/announce
  • udp://shadowshq.yi.org:6969/announce
SitemapLiputan6.com | Oralb PRO 600 rosa cross-action | SHIPPED FROM OVERSEAS Generic 12000mAh LED Dual USB Ports Solar Panel Power Bank Case Charger DIY Kits Box -20% KSh 546 KSh 683 Buy now